Mobile Suit Z Gundam A New Translation III [BDmux 1080p H264 Ita Aac Jap Flac 5.1 SoftSub Eng] torrent download locations

Sponsored
bittorrent.am Mobile Suit Z Gundam - A New Translation III [BDmux 1080p - H264 - Ita Aac Jap Flac 5.1 - SoftSub Eng]
Anime / Hentai - Unsorted
torrent.cd Mobile Suit Z Gundam - A New Translation III [BDmux 1080p - H264 - Ita Aac Jap Flac 5.1 - SoftSub Eng]
Anime
1337x Mobile Suit Z Gundam - A New Translation III [BDmux 1080p - H264 - Ita Aac Jap F...
Anime
torlock Mobile Suit Z Gundam - A New Translation III
Anime
idope.se Mobile Suit Z Gundam - A New Translation III [BDmux 1080p - H264 - Ita Aac Jap Flac 5.1 - SoftSub Eng]
Video
yourbittorrent Mobile Suit Z Gundam - A New Translation III [BDmux 1080p - H264 - Ita Aac Jap Flac 5.1 - SoftSub Eng]
Anime
extratorrent Mobile Suit Z Gundam - A New Translation III [BDmux 1080p - H264 - Ita Aac Jap Flac 5.1 - SoftSub Eng]
Anime > Anime - Other
TheTorrent.org Mobile Suit Z Gundam A New Translation III [BDmux 1080p H264 Ita Aac Jap Flac 5.1 SoftSub Eng]
Torrents storage

Torrent contents

Size: 6.63 GB

Hash: CEF72BAEFD49360087BDAF2F50C98E7BACEAF9F8

Torrent description(s)

  • isohunt.to
  • Demonoid
Mobile Suit Z Gundam - A New Translation III [BDmux 1080p - H264 - Ita Aac Jap Flac 5.1 - SoftSub Eng]

.: Trama :.

Anno 0087 UC, sette anni dopo la fine della Guerra di un anno.
All'indomani degli eventi narrati in Mobile Suit Gundam 0083: Stardust Memory (prequel realizzato successivamente), 
l'esercito della Federazione Terrestre crea un corpo speciale di élite denominato Titani per dare la caccia ed eliminare le sacche di resistenza di Zeon.

La brutalità dei metodi terroristici adottati dai Titani per raggiungere i loro scopi fa nascere in risposta due gruppi di resistenza, 
l'AEUG (Anti-Earth Union Group - Gruppo anti Unione Terrestre) e la sua emanazione terrestre Karaba 
(guidata dall'ex membro della Base Bianca Hayato Kobayashi e del quale farà parte anche Amuro Ray), 
che affronteranno la Federazione in quella che viene chiamata la Guerra di Gryps...

.: Locandina :.

[img]image[/img]

.: Scheda :.

Titolo originale: Mobile Suit Z Gundam: A New Translation 機動戦士Zガンダム(Kidō Senshi Zēta Gandamu)
Anno: 28 maggio 2005 – 4 Marzo 2006
Genere: Mecha, Azione, Fantascienza
Studio: Sunrise
Distribuzione: Giappone NA Sunrise / Italia Dynit
Numero episodi: 3 films
Durata approssimativa: 95 minuti

: Screenshot :. 

[img]image[/img]

.: Dati tecnici del file :.

General
Unique ID : 181938916067456540164038327203419911858 (0x88E0292061E897038928AD34C6A3F6B2)
Complete name : Mobile Suit Z Gundam - A New Translation III - L'amore fa palpitare le stelle - (Love is the Pulse of the Stars) [Mux By MPT].mkv
Format : Matroska
Format version : Version 4 / Version 2
File size : 6.63 GiB
Duration : 1 h 39 min
Overall bit rate mode : Variable
Overall bit rate : 9 579 kb/s
Movie name : Mobile Suit Z Gundam - A New Translation III - L'amore fa palpitare le stelle - (Love is the Pulse of the Stars) [Mux By MPT]
Encoded date : UTC 2016-12-21 12:35:49
Writing application : mkvmerge v9.6.0 ('Slave To Your Mind') 64bit
Writing library : libebml v1.3.4 + libmatroska v1.4.5
Attachments : ACaslon-Regular.otf / AdobeHeitiStd-Regular.otf / AdobeHeitiStd-Regular_0.otf / AdobeKaitiStd-Regular.otf / AdobeKaitiStd-Regular_0.otf / aparaj.ttf / arial.ttf / fansubBlock.ttf / tahoma.ttf / verdana.ttf / verdanai.ttf

Video
ID : 1
Format : AVC
Format/Info : Advanced Video Codec
Format profile : High [email protected]
Format settings, CABAC : Yes
Format settings, ReFrames : 16 frames
Codec ID : V_MPEG4/ISO/AVC
Duration : 1 h 38 min
Bit rate : 7 801 kb/s
Width : 1 920 pixels
Height : 1 080 pixels
Display aspect ratio : 16:9
Frame rate mode : Constant
Frame rate : 23.976 (24000/1001) FPS
Color space : YUV
Chroma subsampling : 4:2:0
Bit depth : 10 bits
Scan type : Progressive
Bits/(Pixel*Frame) : 0.157
Stream size : 5.39 GiB (81%)
Title : Mobile Suit Z Gundam - A New Translation III - L'amore fa palpitare le stelle - (Love is the Pulse of the Stars)
Writing library : x264 core 125 r2200 999b753
Encoding settings : cabac=1 / ref=16 / deblock=1:1:1 / analyse=0x3:0x133 / me=esa / subme=9 / psy=1 / psy_rd=0.40:0.00 / mixed_ref=1 / me_range=16 / chroma_me=1 / trellis=2 / 8x8dct=1 / cqm=0 / deadzone=21,11 / fast_pskip=0 / chroma_qp_offset=-2 / threads=6 / lookahead_threads=1 / sliced_threads=0 / nr=0 / decimate=1 / interlaced=0 / bluray_compat=0 / constrained_intra=0 / bframes=5 / b_pyramid=2 / b_adapt=2 / b_bias=0 / direct=3 / weightb=1 / open_gop=0 / weightp=2 / keyint=230 / keyint_min=23 / scenecut=40 / intra_refresh=0 / rc_lookahead=60 / rc=crf / mbtree=1 / crf=18.0 / qcomp=0.60 / qpmin=0 / qpmax=81 / qpstep=4 / ip_ratio=1.40 / aq=1:0.60
Language : Japanese
Default : Yes
Forced : No

Audio #1
ID : 2
Format : AAC
Format/Info : Advanced Audio Codec
Format profile : LC
Codec ID : A_AAC
Duration : 1 h 39 min
Bit rate : 196 kb/s
Channel(s) : 2 channels
Channel positions : Front: L R
Sampling rate : 48.0 kHz
Frame rate : 46.875 FPS (1024 spf)
Compression mode : Lossy
Stream size : 139 MiB (2%)
Title : Italiano
Language : Italian
Default : Yes
Forced : No

Audio #2
ID : 3
Format : FLAC
Format/Info : Free Lossless Audio Codec
Codec ID : A_FLAC
Duration : 1 h 39 min
Bit rate mode : Variable
Bit rate : 1 514 kb/s
Channel(s) : 6 channels
Channel positions : Front: L C R, Side: L R, LFE
Sampling rate : 48.0 kHz
Frame rate : 11.719 FPS (4096 spf)
Bit depth : 16 bits
Stream size : 1.05 GiB (16%)
Title : Giapponese
Writing library : libFLAC 1.2.1 (UTC 2007-09-17)
Language : Japanese
Default : No
Forced : No

Text
ID : 4
Format : ASS
Codec ID : S_TEXT/ASS
Codec ID/Info : Advanced Sub Station Alpha
Duration : 1 h 37 min
Bit rate : 121 b/s
Count of elements : 1598
Compression mode : Lossless
Stream size : 87.0 KiB (0%)
Title : Inglese
Language : English
Default : No
Forced : No

Menu
00:00:00.000 : :The Imperial Princess of Zeon
00:11:20.054 : :Scirocco's Ambition
00:17:45.648 : :Quattro's Humiliation
00:22:41.235 : :Haman's Domination
00:29:56.878 : :Sarah's Hesitation
00:35:19.951 : :Reccoa's Confession
00:42:32.967 : :The Gwadon Conspiracy
00:51:50.316 : :Battlefield of Chaos
00:58:15.701 : :The Battle of Gryps
01:09:11.147 : :Glorious Death in Space
01:16:56.070 : :Emma's Fate
01:33:27.101 : :Ending [Gackt - Love Letter + Gackt - Dybbuk]
Mobile Suit Z Gundam - A New Translation III [BDmux 1080p - H264 - Ita Aac Jap Flac 5.1 - SoftSub Eng]

.: Trama :.

Anno 0087 UC, sette anni dopo la fine della Guerra di un anno.
All'indomani degli eventi narrati in Mobile Suit Gundam 0083: Stardust Memory (prequel realizzato successivamente),
l'esercito della Federazione Terrestre crea un corpo speciale di élite denominato Titani per dare la caccia ed eliminare le sacche di resistenza di Zeon.

La brutalità dei metodi terroristici adottati dai Titani per raggiungere i loro scopi fa nascere in risposta due gruppi di resistenza,
l'AEUG (Anti-Earth Union Group - Gruppo anti Unione Terrestre) e la sua emanazione terrestre Karaba
(guidata dall'ex membro della Base Bianca Hayato Kobayashi e del quale farà parte anche Amuro Ray),
che affronteranno la Federazione in quella che viene chiamata la Guerra di Gryps...

.: Locandina :.



.: Scheda :.

Titolo originale: Mobile Suit Z Gundam: A New Translation ????Z????(Kid? Senshi Z?ta Gandamu)
Anno: 28 maggio 2005 – 4 Marzo 2006
Genere: Mecha, Azione, Fantascienza
Studio: Sunrise
Distribuzione: Giappone NA Sunrise / Italia Dynit
Numero episodi: 3 films
Durata approssimativa: 95 minuti

: Screenshot :.



.: Dati tecnici del file :.

General
Unique ID : 181938916067456540164038327203419911858 (0x88E0292061E897038928AD34C6A3F6B2)
Complete name : Mobile Suit Z Gundam - A New Translation III - L'amore fa palpitare le stelle - (Love is the Pulse of the Stars) [Mux By MPT].mkv
Format : Matroska
Format version : Version 4 / Version 2
File size : 6.63 GiB
Duration : 1 h 39 min
Overall bit rate mode : Variable
Overall bit rate : 9 579 kb/s
Movie name : Mobile Suit Z Gundam - A New Translation III - L'amore fa palpitare le stelle - (Love is the Pulse of the Stars) [Mux By MPT]
Encoded date : UTC 2016-12-21 12:35:49
Writing application : mkvmerge v9.6.0 ('Slave To Your Mind') 64bit
Writing library : libebml v1.3.4 + libmatroska v1.4.5
Attachments : ACaslon-Regular.otf / AdobeHeitiStd-Regular.otf / AdobeHeitiStd-Regular_0.otf / AdobeKaitiStd-Regular.otf / AdobeKaitiStd-Regular_0.otf / aparaj.ttf / arial.ttf / fansubBlock.ttf / tahoma.ttf / verdana.ttf / verdanai.ttf

Video
ID : 1
Format : AVC
Format/Info : Advanced Video Codec
Format profile : High [email protected]
Format settings, CABAC : Yes
Format settings, ReFrames : 16 frames
Codec ID : V_MPEG4/ISO/AVC
Duration : 1 h 38 min
Bit rate : 7 801 kb/s
Width : 1 920 pixels
Height : 1 080 pixels
Display aspect ratio : 16:9
Frame rate mode : Constant
Frame rate : 23.976 (24000/1001) FPS
Color space : YUV
Chroma subsampling : 4:2:0
Bit depth : 10 bits
Scan type : Progressive
Bits/(Pixel*Frame) : 0.157
Stream size : 5.39 GiB (81%)
Title : Mobile Suit Z Gundam - A New Translation III - L'amore fa palpitare le stelle - (Love is the Pulse of the Stars)
Writing library : x264 core 125 r2200 999b753
Encoding settings : cabac=1 / ref=16 / deblock=1:1:1 / analyse=0x3:0x133 / me=esa / subme=9 / psy=1 / psy_rd=0.40:0.00 / mixed_ref=1 / me_range=16 / chroma_me=1 / trellis=2 / 8x8dct=1 / cqm=0 / deadzone=21,11 / fast_pskip=0 / chroma_qp_offset=-2 / threads=6 / lookahead_threads=1 / sliced_threads=0 / nr=0 / decimate=1 / interlaced=0 / bluray_compat=0 / constrained_intra=0 / bframes=5 / b_pyramid=2 / b_adapt=2 / b_bias=0 / direct=3 / weightb=1 / open_gop=0 / weightp=2 / keyint=230 / keyint_min=23 / scenecut=40 / intra_refresh=0 / rc_lookahead=60 / rc=crf / mbtree=1 / crf=18.0 / qcomp=0.60 / qpmin=0 / qpmax=81 / qpstep=4 / ip_ratio=1.40 / aq=1:0.60
Language : Japanese
Default : Yes
Forced : No

Audio #1
ID : 2
Format : AAC
Format/Info : Advanced Audio Codec
Format profile : LC
Codec ID : A_AAC
Duration : 1 h 39 min
Bit rate : 196 kb/s
Channel(s) : 2 channels
Channel positions : Front: L R
Sampling rate : 48.0 kHz
Frame rate : 46.875 FPS (1024 spf)
Compression mode : Lossy
Stream size : 139 MiB (2%)
Title : Italiano
Language : Italian
Default : Yes
Forced : No

Audio #2
ID : 3
Format : FLAC
Format/Info : Free Lossless Audio Codec
Codec ID : A_FLAC
Duration : 1 h 39 min
Bit rate mode : Variable
Bit rate : 1 514 kb/s
Channel(s) : 6 channels
Channel positions : Front: L C R, Side: L R, LFE
Sampling rate : 48.0 kHz
Frame rate : 11.719 FPS (4096 spf)
Bit depth : 16 bits
Stream size : 1.05 GiB (16%)
Title : Giapponese
Writing library : libFLAC 1.2.1 (UTC 2007-09-17)
Language : Japanese
Default : No
Forced : No

Text
ID : 4
Format : ASS
Codec ID : S_TEXT/ASS
Codec ID/Info : Advanced Sub Station Alpha
Duration : 1 h 37 min
Bit rate : 121 b/s
Count of elements : 1598
Compression mode : Lossless
Stream size : 87.0 KiB (0%)
Title : Inglese
Language : English
Default : No
Forced : No

Menu
00:00:00.000 : :The Imperial Princess of Zeon
00:11:20.054 : :Scirocco's Ambition
00:17:45.648 : :Quattro's Humiliation
00:22:41.235 : :Haman's Domination
00:29:56.878 : :Sarah's Hesitation
00:35:19.951 : :Reccoa's Confession
00:42:32.967 : :The Gwadon Conspiracy
00:51:50.316 : :Battlefield of Chaos
00:58:15.701 : :The Battle of Gryps
01:09:11.147 : :Glorious Death in Space
01:16:56.070 : :Emma's Fate
01:33:27.101 : :Ending [Gackt - Love Letter + Gackt - Dybbuk]

Related torrents

Share