Mladost.5.Episode.03.WEB.Rip.MP4.MC.FREEPLAY.mp4 torrent download locations

Sponsored
bittorrent.am Mladost 5 Episode 03 WEB Rip MP4 MC FREEPLAY mp4
Series/TV Shows - Unsorted
torrent.cd Mladost.5.Episode.03.WEB.Rip.MP4.MC.FREEPLAY.mp4
movies - hd - tv shows
thepiratebay Mladost.5.Episode.03.WEB.Rip.MP4.MC.FREEPLAY.mp4
Video - HD - TV shows
monova Mladost.5.Episode.03.WEB.Rip.MP4.MC.FREEPLAY.mp4
TV
torrentfunk Mladost 5 Episode 03 WEB Rip MP4 MC FREEPLAY mp4
Television
TheTorrent.org Mladost.5.Episode.03.WEB.Rip.MP4.MC.FREEPLAY.mp4
Torrents storage

Torrent contents

Size: 865.77 MB

Hash: 8B494FC12E021E1B1A7D5F094ACB0053D8D75779

Torrent description(s)

  • thepiratebay
  • isohunt.to
Mladost.5.Episode.03.WEB.Rip.MP4.MC.FREEPLAY.mp4
   
General
      Complete name : Mladost.5.Episode.03.WEB.Rip.MP4.MC.FREEPLAY.mp4
      Format : MPEG-4
      Format profile : Base Media / Version 2
      Codec ID : mp42
      File size : 866 MiB
      Duration : 46mn 2s
      Overall bit rate : 2 629 Kbps
      Encoded date : UTC 2013-03-23 08:04:45
      Tagged date : UTC 2013-03-23 08:04:45
   Video #1
      ID : 1
      Format : MPEG-4 Visual
      Format profile : AdvancedSimple@L5
      Format settings, BVOP : No
      Format settings, QPel : No
      Format settings, GMC : No warppoints
      Format settings, Matrix : Default (H.263)
      Codec ID : 20
      Duration : 46mn 2s
      Bit rate mode : Variable
      Bit rate : 2 500 Kbps
      Maximum bit rate : 31.3 Mbps
      Width : 1 280 pixels
      Height : 720 pixels
      Display aspect ratio : 16:9
      Frame rate mode : Constant
      Frame rate : 30.000 fps
      Resolution : 24 bits
      Colorimetry : 4:2:0
      Scan type : Progressive
      Bits/(Pixel*Frame) : 0.090
      Stream size : 823 MiB (95%)
      Language : English
      Encoded date : UTC 2013-03-23 08:04:45
      Tagged date : UTC 2013-03-23 08:04:45
   Audio #2
      ID : 2
      Format : AAC
      Format/Info : Advanced Audio Codec
      Format version : Version 4
      Format profile : LC
      Format settings, SBR : No
      Codec ID : 40
      Duration : 46mn 2s
      Bit rate mode : Variable
      Bit rate : 126 Kbps
      Maximum bit rate : 374 Kbps
      Channel(s) : 2 channels
      Channel positions : L R
      Sampling rate : 44.1 KHz
      Resolution : 16 bits
      Stream size : 41.4 MiB (5%)
      Language : English
      Encoded date : UTC 2013-03-23 08:04:45
      Tagged date : UTC 2013-03-23 08:04:45		
Mladost.5.Episode.03.WEB.Rip.MP4.MC.FREEPLAY.mp4
General
      Complete name : Mladost.5.Episode.03.WEB.Rip.MP4.MC.FREEPLAY.mp4
      Format : MPEG-4
      Format profile : Base Media / Version 2
      Codec ID : mp42
      File size : 866 MiB
      Duration : 46mn 2s
      Overall bit rate : 2 629 Kbps
      Encoded date : UTC 2013-03-23 08:04:45
      Tagged date : UTC 2013-03-23 08:04:45
   Video #1
      ID : 1
      Format : MPEG-4 Visual
      Format profile : AdvancedSimple@L5
      Format settings, BVOP : No
      Format settings, QPel : No
      Format settings, GMC : No warppoints
      Format settings, Matrix : Default (H.263)
      Codec ID : 20
      Duration : 46mn 2s
      Bit rate mode : Variable
      Bit rate : 2 500 Kbps
      Maximum bit rate : 31.3 Mbps
      Width : 1 280 pixels
      Height : 720 pixels
      Display aspect ratio : 16:9
      Frame rate mode : Constant
      Frame rate : 30.000 fps
      Resolution : 24 bits
      Colorimetry : 4:2:0
      Scan type : Progressive
      Bits/(Pixel*Frame) : 0.090
      Stream size : 823 MiB (95%)
      Language : English
      Encoded date : UTC 2013-03-23 08:04:45
      Tagged date : UTC 2013-03-23 08:04:45
   Audio #2
      ID : 2
      Format : AAC
      Format/Info : Advanced Audio Codec
      Format version : Version 4
      Format profile : LC
      Format settings, SBR : No
      Codec ID : 40
      Duration : 46mn 2s
      Bit rate mode : Variable
      Bit rate : 126 Kbps
      Maximum bit rate : 374 Kbps
      Channel(s) : 2 channels
      Channel positions : L R
      Sampling rate : 44.1 KHz
      Resolution : 16 bits
      Stream size : 41.4 MiB (5%)
      Language : English
      Encoded date : UTC 2013-03-23 08:04:45
      Tagged date : UTC 2013-03-23 08:04:45		

Related torrents

Share