Divergent Unabridged MP3 320 16Bit CBR JLRIP torrent download locations

Sponsored
monova Divergent Unabridged MP3 320 16Bit CBR JLRIP
Music
TheTorrent.org Divergent Unabridged MP3 320 16Bit CBR JLRIP
Torrents storage

Torrent contents

Size: 1.5 GB

Hash: AE2B571ACC32D94BE337636DDDAE87F1D1EA3A28

Torrent description(s)

  • kickasstorrents
image

Plot:

In Beatrice Prior’s dystopian Chicago world, society is divided into five
factions, each dedicated to the cultivation of a particular virtue—Candor
(the honest), Abnegation (the selfless), Dauntless (the brave), Amity
(the peaceful), and Erudite (the intelligent). On an appointed day of every
year, all sixteen-year-olds must select the faction to which they will
devote the rest of their lives. For Beatrice, the decision is between staying
with her family and being who she really is—she can’t have both. So she makes
a choice that surprises everyone, including herself. During the highly
competitive initiation that follows, Beatrice renames herself Tris and
struggles alongside her fellow initiates to live out the choice they have
made. Together they must undergo extreme physical tests of endurance and
intense psychological simulations, some with devastating consequences. As
initiation transforms them all, Tris must determine who her friends really
are—and where, exactly, a romance with a sometimes fascinating, sometimes
exasperating boy fits into the life she's chosen. But Tris also has a secret,
one she's kept hidden from everyone because she's been warned it can mean
death. And as she discovers unrest and growing conflict that threaten to
unravel her seemingly perfect society, she also learns that her secret might
help her save those she loves . . . or it might destroy her.

Debut author Veronica Roth bursts onto the YA scene with the first book in
the Divergent series—dystopian thrillers filled with electrifying decisions,
heartbreaking betrayals, stunning consequences, and unexpected romance.


Info:

Part 1

General

Complete name
Format : MPEG Audio
File size : 820 MiB
Duration : 5h 58mn
Overall bit rate mode : Constant
Overall bit rate : 320 Kbps
Writing library : LAME3.98.2

Audio

Format : MPEG Audio
Format version : Version 1
Format profile : Layer 3
Mode : Joint stereo
Mode extension : MS Stereo
Duration : 5h 58mn
Bit rate mode : Constant
Bit rate : 320 Kbps
Channel(s) : 2 channels
Sampling rate : 44.1 KHz
Compression mode : Lossy
Stream size : 820 MiB (100%)
Writing library : LAME3.98.2

Part 2

General

Complete name
Format : MPEG Audio
File size : 717 MiB
Duration : 5h 13mn
Overall bit rate mode : Constant
Overall bit rate : 320 Kbps
Writing library : LAME3.98.2

Audio

Format : MPEG Audio
Format version : Version 1
Format profile : Layer 3
Mode : Joint stereo
Mode extension : MS Stereo
Duration : 5h 13mn
Bit rate mode : Constant
Bit rate : 320 Kbps
Channel(s) : 2 channels
Sampling rate : 44.1 KHz
Compression mode : Lossy
Stream size : 717 MiB (100%)
Writing library : LAME3.98.2

Related torrents

Title
Size
Seeds
Peers
Holi Special Songs Collection - Mp3 - 320 Kbps in 'Music'
222.52 MB
0
0
Ketz - Outistic - mp3 (320 kbps) in 'Music'
82.78 MB
-
-
Therion - Sitra Ahra (MP3 320 kbps) (2010) in 'Music'
123.47 MB
-
-
Relient K - Forget and Not Slow Down (MP3 320 kbps) (2009) in 'Music'
90.33 MB
-
-
Staind - Break the Cycle (MP3 320 kbps) (2001) in 'Music'
108.34 MB
0
1
Beastie Boys - The Sounds of Science (MP3 320 kbps) in 'Music'
309.22 MB
0
3
Michael Franti & Spearhead - All Rebel Rockers [MP3 320 kbps] in 'Music'
131.85 MB
-
-
Georgia Fair - Times Fly (EP) [email protected] in 'Music'
32.82 MB
-
-
Georgia Fair - Times Fly (EP) [email protected] in 'Music'
32.82 MB
-
-
RMF MAXXX - HOP BĘC [11.02.2013] [email protected] in 'Music'
165.22 MB
-
-
Iron Maiden - Maiden England '88 (2013) [2CD] [[email protected]] in 'Music'
230.51 MB
-
-

Share