Captain America The Winter Soldier (2014) DCPRip 3D trailer Rus torrent download locations

Sponsored
bittorrent.am Captain America The Winter Soldier (2014) DCPRip 3D trailer Rus
Movies - Clips
torrent.cd Первый мститель: Другая война Captain America: The Winter Soldier (2014) DCPrip 3D Трейлер
movies - other
thepiratebay Captain America: The Winter Soldier (2014) DCPRip 3D trailer Rus
Video - Movie clips
monova Captain America: The Winter Soldier (2014) DCPRip 3D trailer Rus
Other
torrentfunk CapAmerWintSol_TLR-A-3D_S_RU-XX_INT_51_2K_DI_20131012_TDC_IOP-3D_OV_01
Movies
yourbittorrent CapAmerWintSol_TLR-A-3D_S_RU-XX_INT_51_2K_DI_20131012_TDC_IOP-3D_OV_01.mkv
Movies
torrentdownloads CapAmerWintSol_TLR-A-3D_S_RU-XX_INT_51_2K_DI_20131012_TDC_IOP-3D_OV_01 mkv
TheTorrent.org Captain America The Winter Soldier (2014) DCPRip 3D trailer Rus
Torrents storage

Torrent contents

Size: 640.14 MB

Hash: C28F358164405CC18568D49C35F8CECDB3D1DE6D

Torrent description(s)

  • thepiratebay
Captain America: The Winter Soldier (2014) DCPRip 3D trailer Russian
MediaInfo:
General
Unique ID                                : 187169162778422317856177655564426020533 (0x8CCF7832DC8CB85D9102A0DEC27C06B5)
Complete name                            : D:moviesтрейлерыCapAmerWintSol_TLR-A-3D_S_RU-XX_INT_51_2K_DI_20131012_TDC_IOP-3D_OV_01.mkv
Format                                   : Matroska
Format version                           : Version 4 / Version 2
File size                                : 640 MiB
Duration                                 : 2mn 30s
Overall bit rate                         : 35.6 Mbps
Encoded date                             : UTC 2013-11-09 10:59:06
Writing application                      : mkvmerge v6.3.0 ('You can't stop me!') built on Jun 28 2013 20:09:41
Writing library                          : libebml v1.3.0 + libmatroska v1.4.0

Video
ID                                       : 1
Format                                   : AVC
Format/Info                              : Advanced Video Codec
Format profile                           : [email protected]
Format settings, CABAC                   : Yes
Format settings, ReFrames                : 4 frames
Codec ID                                 : V_MPEG4/ISO/AVC
Duration                                 : 2mn 30s
Bit rate                                 : 35.0 Mbps
Width                                    : 1 920 pixels
Height                                   : 1 080 pixels
Display aspect ratio                     : 16:9
Frame rate mode                          : Constant
Frame rate                               : 24.000 fps
Color space                              : YUV
Chroma subsampling                       : 4:2:0
Bit depth                                : 8 bits
Scan type                                : Progressive
Bits/(Pixel*Frame)                       : 0.703
Stream size                              : 616 MiB (96%)
Title                                    : CapAmerWintSol_TLR-A-3D_S
Writing library                          : x264 core 120
Encoding settings                        : cabac=1 // deblock=1:0:0 / analyse=0x3:0x113 / me=hex / subme=7 / psy=1 / psy_rd=1.00:0.00 // me_range=16 / chroma_me=1 / trellis=1 / 8x8dct=1 / cqm=0 / deadzone=21,11 / fast_pskip=1 / chroma_qp_offset=-2 / threads=12 / sliced_threads=0 / nr=0 / decimate=1 / interlaced=0 / bluray_compat=0 / constrained_intra=0 / bframes=3 / b_pyramid=2 / b_adapt=2 / b_bias=0 / direct=1 / weightb=1 / open_gop=0 / weightp=2 / keyint=240 / keyint_min=24 / scenecut=40 / intra_refresh=0 / rc_lookahead=50 / rc=2pass / mbtree=1 / bitrate=35000 / ratetol=1.0 / qcomp=0.60 / qpmin=3 / qpmax=69 / qpstep=4 / cplxblur=20.0 / qblur=0.5 / ip_ratio=1.40 / aq=1:1.00
Language                                 : Russian
Default                                  : Yes
Forced                                   : No
Color primaries                          : BT.709
Transfer characteristics                 : BT.709
Matrix coefficients                      : BT.709

Audio
ID                                       : 2
Format                                   : AC-3
Format/Info                              : Audio Coding 3
Mode extension                           : CM (complete main)
Format settings, Endianness              : Big
Codec ID                                 : A_AC3
Duration                                 : 2mn 30s
Bit rate mode                            : Constant
Bit rate                                 : 640 Kbps
Channel(s)                               : 6 channels
Channel positions                        : Front: L C R, Side: L R, LFE
Sampling rate                            : 48.0 KHz
Bit depth                                : 16 bits
Compression mode                         : Lossy
Stream size                              : 11.5 MiB (2%)
Title                                    : AC-3 5.1
Language                                 : Russian
Default                                  : Yes
Forced                                   : No

		

Related torrents

Share