Radiofreccia AKA Radio Arrow Luciano Ligabue (1998) torrent download locations

Sponsored
bittorrent.am Radiofreccia AKA Radio Arrow - Luciano Ligabue (1998)
movies - unsorted
torrent.cd Radiofreccia AKA Radio Arrow - Luciano Ligabue (1998)
Movies
thepiratebay Radiofreccia AKA Radio Arrow - Luciano Ligabue (1998)
Video - Movies
monova Radiofreccia AKA Radio Arrow - Luciano Ligabue (1998)
Movies
torrentdownloads Radiofreccia - Luciano Ligabue
torrentfunk Radiofreccia - Luciano Ligabue
Movies
TheTorrent.org Radiofreccia AKA Radio Arrow Luciano Ligabue (1998)
Torrents storage

Torrent contents

Size: 662.37 MB

Hash: C1E6B6E4BF54C99CB98EFDED0EFBDBBDEB964A3D

Torrent description(s)

  • isohunt.to
Five friends Freccia, Bruno, Tito, Jena and Boris are very keen on music but they live in a little town in northern Italy and spend most of their days at the local bar. They decide to set up an independent radio which soon becomes the voice of a generation. When Freccia dies from an overdose the radio takes his name. Written by Salvatore Santangelo <[email protected]>

SUBS: English
 
http://www.imdb.com/title/tt0169164/

General 
Complete name : Radiofreccia - Luciano Ligabue.avi 
Format : AVI 
Format/Info : Audio Video Interleave 
File size : 662 MiB 
Duration : 1h 48mn 
Overall bit rate : 857 Kbps 

Video 
ID : 0 
Format : MPEG-4 Visual 
Format profile : Advanced [email protected] 
Format settings, BVOP : 2 
Format settings, QPel : No 
Format settings, GMC : No warppoints 
Format settings, Matrix : Default (H.263) 
Codec ID : XVID 
Codec ID/Hint : XviD 
Duration : 1h 48mn 
Bit rate : 720 Kbps 
Width : 720 pixels 
Height : 384 pixels 
Display aspect ratio : 1.85:1 
Frame rate : 25.000 fps 
Color space : YUV 
Chroma subsampling : 4:2:0 
Bit depth : 8 bits 
Scan type : Progressive 
Compression mode : Lossy 
Bits/(Pixel*Frame) : 0.104 
Stream size : 556 MiB (84%) 
Writing library : XviD 1.2.0.dev47 (UTC 2006-11-01) 

Audio 
ID : 1 
Format : MPEG Audio 
Format version : Version 1 
Format profile : Layer 3 
Mode : Joint stereo 
Codec ID : 55 
Codec ID/Hint : MP3 
Duration : 1h 47mn 
Source duration : 1h 47mn 
Bit rate mode : Constant 
Bit rate : 128 Kbps 
Channel(s) : 2 channels 
Sampling rate : 48.0 KHz 
Compression mode : Lossy 
Stream size : 98.9 MiB (15%) 
Alignment : Aligned on interleaves 
Interleave, duration : 40 ms (1.00 video frame) 

		

Related torrents

Share