Peppa Pig The Balloon Ride DVDRip XviD AC3 peaSoup torrent download locations

Sponsored
torrent.cd Peppa Pig The Balloon Ride DVDRip XviD AC3 peaSoup
tv - unsorted
monova Peppa Pig The Balloon Ride DVDRip XviD AC3 peaSoup
TV
torrentfunk Peppa Pig The Balloon Ride DVDRip XviD AC3 peaSoup
Movies
TheTorrent.org Peppa Pig The Balloon Ride DVDRip XviD AC3 peaSoup
Torrents storage

Torrent contents

Size: 457.26 MB

Hash: 1D0FA0C5C7A07D31378829602FAAAA86957CA377

Torrent description(s)

  • kickasstorrents
imageimage Follow the adventures of Peppa Pig, her friends and family - Daddy Pig, Mummy Pig and little brother George. Peppa loves nothing more than jumping in muddy puddles, always ending happily with loud snorts of laughter! Features 10 piggy tales! imageimageimage Format : AVI
Format/Info : Audio Video Interleave
File size : 457 MiB
Duration : 50mn 6s
Overall bit rate : 1 276 Kbps
Movie name : Peppa Pig The Balloon Ride (2008) DVDRip XviD AC3 peaSoup
Writing application : Lavf53.21.0
Original source form/Name : PEPPA_PIG

Video
ID : 0
Format : MPEG-4 Visual
Format profile : Advanced [email protected]
Format settings, BVOP : 2
Format settings, QPel : No
Format settings, GMC : No warppoints
Format settings, Matrix : Default (H.263)
Muxing mode : Packed bitstream
Codec ID : XVID
Codec ID/Hint : XviD
Duration : 50mn 6s
Bit rate : 1 073 Kbps
Width : 720 pixels
Height : 406 pixels
Display aspect ratio : 16:9
Frame rate : 25.000 fps
Color space : YUV
Chroma subsampling : 4:2:0
Bit depth : 8 bits
Scan type : Progressive
Compression mode : Lossy
Bits/(Pixel*Frame) : 0.147
Stream size : 385 MiB (84%)
Writing library : XviD 1.2.1 (UTC 2008-12-04)

Audio
ID : 1
Format : AC-3
Format/Info : Audio Coding 3
Mode extension : CM (complete main)
Format settings, Endianness : Big
Codec ID : 2000
Duration : 50mn 0s
Bit rate mode : Constant
Bit rate : 192 Kbps
Channel(s) : 2 channels
Channel positions : Front: L R
Sampling rate : 48.0 KHz
Bit depth : 16 bits
Compression mode : Lossy
Stream size : 68.7 MiB (15%)
Alignment : Aligned on interleaves
Interleave, duration : 32 ms (0.80 video frame)

image

Related torrents

Share