Mobile Suit Z Gundam A New Translation II [BDmux 1080p H264 Ita Aac Jap Flac 5.1 SoftSub Eng] torrent download locations

Sponsored
bittorrent.am Mobile Suit Z Gundam - A New Translation II [BDmux 1080p - H264 - Ita Aac Jap Flac 5.1 - SoftSub Eng]
Anime / Hentai - Unsorted
torrent.cd Mobile Suit Z Gundam - A New Translation II [BDmux 1080p - H264 - Ita Aac Jap Flac 5.1 - SoftSub Eng]
Anime
1337x Mobile Suit Z Gundam - A New Translation II [BDmux 1080p - H264 - Ita Aac Jap Fl...
Anime
torrentdownloads
Anime
extratorrent Mobile Suit Z Gundam - A New Translation II [BDmux 1080p - H264 - Ita Aac Jap Flac 5.1 - SoftSub Eng]
Anime > Anime - Other
Demonoid Mobile Suit Z Gundam - A New Translation II [BDmux 1080p - H264 - Ita Aac Jap Flac 5.1 - SoftSub Eng]
Anime
TheTorrent.org Mobile Suit Z Gundam A New Translation II [BDmux 1080p H264 Ita Aac Jap Flac 5.1 SoftSub Eng]
Torrents storage

Torrent contents

Size: 5.92 GB

Hash: 34903E3D6B1BA425F068A1D10BDC7EE8C941902B

Torrent description(s)

  • isohunt.to
  • Demonoid
Mobile Suit Z Gundam - A New Translation II [BDmux 1080p - H264 - Ita Aac Jap Flac 5.1 - SoftSub Eng]

.: Trama :.

Anno 0087 UC, sette anni dopo la fine della Guerra di un anno.
All'indomani degli eventi narrati in Mobile Suit Gundam 0083: Stardust Memory (prequel realizzato successivamente), 
l'esercito della Federazione Terrestre crea un corpo speciale di élite denominato Titani per dare la caccia ed eliminare le sacche di resistenza di Zeon.

La brutalità dei metodi terroristici adottati dai Titani per raggiungere i loro scopi fa nascere in risposta due gruppi di resistenza, 
l'AEUG (Anti-Earth Union Group - Gruppo anti Unione Terrestre) e la sua emanazione terrestre Karaba 
(guidata dall'ex membro della Base Bianca Hayato Kobayashi e del quale farà parte anche Amuro Ray), 
che affronteranno la Federazione in quella che viene chiamata la Guerra di Gryps...

.: Locandina :.

[img]image[/img]

.: Scheda :.

Titolo originale: Mobile Suit Z Gundam: A New Translation 機動戦士Zガンダム(Kidō Senshi Zēta Gandamu)
Anno: 28 maggio 2005 – 4 Marzo 2006
Genere: Mecha, Azione, Fantascienza
Studio: Sunrise
Distribuzione: Giappone NA Sunrise / Italia Dynit
Numero episodi: 3 films
Durata approssimativa: 95 minuti

: Screenshot :. 

[img]image[/img]

.: Dati tecnici del file :.

General
Unique ID : 191714068343691455773737952661118982464 (0x903AC957F48FB5CE828B03419D611940)
Complete name : Mobile Suit Z Gundam - A New Translation II - Amanti - (Lovers) [Mux By MPT].mkv
Format : Matroska
Format version : Version 4 / Version 2
File size : 5.92 GiB
Duration : 1 h 37 min
Overall bit rate mode : Variable
Overall bit rate : 8 668 kb/s
Movie name : Mobile Suit Z Gundam - A New Translation II - Amanti - (Lovers) [Mux By MPT]
Encoded date : UTC 2016-12-21 08:39:04
Writing application : mkvmerge v9.6.0 ('Slave To Your Mind') 64bit
Writing library : libebml v1.3.4 + libmatroska v1.4.5
Attachments : ACaslon-Regular.otf / AdobeHeitiStd-Regular.otf / AdobeHeitiStd-Regular_0.otf / AdobeKaitiStd-Regular.otf / AdobeKaitiStd-Regular_0.otf / aparaj.ttf / arial.ttf / fansubBlock.ttf / tahoma.ttf / verdana.ttf / verdanai.ttf

Video
ID : 1
Format : AVC
Format/Info : Advanced Video Codec
Format profile : High [email protected]
Format settings, CABAC : Yes
Format settings, ReFrames : 16 frames
Codec ID : V_MPEG4/ISO/AVC
Duration : 1 h 37 min
Bit rate : 6 942 kb/s
Width : 1 920 pixels
Height : 1 080 pixels
Display aspect ratio : 16:9
Frame rate mode : Constant
Frame rate : 23.976 (24000/1001) FPS
Color space : YUV
Chroma subsampling : 4:2:0
Bit depth : 10 bits
Scan type : Progressive
Bits/(Pixel*Frame) : 0.140
Stream size : 4.73 GiB (80%)
Title : Mobile Suit Z Gundam - A New Translation II - Amanti - (Lovers)
Writing library : x264 core 125 r2200 999b753
Encoding settings : cabac=1 / ref=16 / deblock=1:1:1 / analyse=0x3:0x133 / me=esa / subme=9 / psy=1 / psy_rd=0.40:0.00 / mixed_ref=1 / me_range=16 / chroma_me=1 / trellis=2 / 8x8dct=1 / cqm=0 / deadzone=21,11 / fast_pskip=0 / chroma_qp_offset=-2 / threads=6 / lookahead_threads=1 / sliced_threads=0 / nr=0 / decimate=1 / interlaced=0 / bluray_compat=0 / constrained_intra=0 / bframes=5 / b_pyramid=2 / b_adapt=2 / b_bias=0 / direct=3 / weightb=1 / open_gop=0 / weightp=2 / keyint=230 / keyint_min=23 / scenecut=40 / intra_refresh=0 / rc_lookahead=60 / rc=crf / mbtree=1 / crf=18.0 / qcomp=0.60 / qpmin=0 / qpmax=81 / qpstep=4 / ip_ratio=1.40 / aq=1:0.60
Language : Japanese
Default : Yes
Forced : No

Audio #1
ID : 2
Format : AAC
Format/Info : Advanced Audio Codec
Format profile : LC
Codec ID : A_AAC
Duration : 1 h 37 min
Bit rate : 196 kb/s
Channel(s) : 2 channels
Channel positions : Front: L R
Sampling rate : 48.0 kHz
Frame rate : 46.875 FPS (1024 spf)
Compression mode : Lossy
Stream size : 137 MiB (2%)
Title : Italiano
Language : Italian
Default : Yes
Forced : No

Audio #2
ID : 3
Format : FLAC
Format/Info : Free Lossless Audio Codec
Codec ID : A_FLAC
Duration : 1 h 37 min
Bit rate mode : Variable
Bit rate : 1 460 kb/s
Channel(s) : 6 channels
Channel positions : Front: L C R, Side: L R, LFE
Sampling rate : 48.0 kHz
Frame rate : 11.719 FPS (4096 spf)
Bit depth : 16 bits
Stream size : 1 021 MiB (17%)
Title : Giapponese
Writing library : libFLAC 1.2.1 (UTC 2007-09-17)
Language : Japanese
Default : No
Forced : No

Text
ID : 4
Format : ASS
Codec ID : S_TEXT/ASS
Codec ID/Info : Advanced Sub Station Alpha
Duration : 1 h 36 min
Bit rate : 117 b/s
Count of elements : 1509
Compression mode : Lossless
Stream size : 83.6 KiB (0%)
Title : Inglese
Language : English
Default : No
Forced : No

Menu
00:00:00.000 : :Beltorchika Visits
00:05:46.972 : :Shuttle Launch
00:12:02.055 : :Four Murasame
00:28:43.221 : :Parting of the Blue Sky
00:37:40.800 : :Zeta's Pulse
00:44:49.520 : :Quickening to the Chaos
00:54:29.808 : :Trust and Betrayal
01:03:46.114 : :Breif Rest
01:07:44.560 : :Sarah Sneaks In
01:22:47.504 : :A Sign of Scirocco
01:28:40.815 : :The Ghost of Zeon
01:33:02.702 : :Ending [Gackt - Mind Forest]
Mobile Suit Z Gundam - A New Translation II [BDmux 1080p - H264 - Ita Aac Jap Flac 5.1 - SoftSub Eng]

.: Trama :.

Anno 0087 UC, sette anni dopo la fine della Guerra di un anno.
All'indomani degli eventi narrati in Mobile Suit Gundam 0083: Stardust Memory (prequel realizzato successivamente),
l'esercito della Federazione Terrestre crea un corpo speciale di élite denominato Titani per dare la caccia ed eliminare le sacche di resistenza di Zeon.

La brutalità dei metodi terroristici adottati dai Titani per raggiungere i loro scopi fa nascere in risposta due gruppi di resistenza,
l'AEUG (Anti-Earth Union Group - Gruppo anti Unione Terrestre) e la sua emanazione terrestre Karaba
(guidata dall'ex membro della Base Bianca Hayato Kobayashi e del quale farà parte anche Amuro Ray),
che affronteranno la Federazione in quella che viene chiamata la Guerra di Gryps...

.: Locandina :.



.: Scheda :.

Titolo originale: Mobile Suit Z Gundam: A New Translation ????Z????(Kid? Senshi Z?ta Gandamu)
Anno: 28 maggio 2005 – 4 Marzo 2006
Genere: Mecha, Azione, Fantascienza
Studio: Sunrise
Distribuzione: Giappone NA Sunrise / Italia Dynit
Numero episodi: 3 films
Durata approssimativa: 95 minuti

: Screenshot :.



.: Dati tecnici del file :.

General
Unique ID : 191714068343691455773737952661118982464 (0x903AC957F48FB5CE828B03419D611940)
Complete name : Mobile Suit Z Gundam - A New Translation II - Amanti - (Lovers) [Mux By MPT].mkv
Format : Matroska
Format version : Version 4 / Version 2
File size : 5.92 GiB
Duration : 1 h 37 min
Overall bit rate mode : Variable
Overall bit rate : 8 668 kb/s
Movie name : Mobile Suit Z Gundam - A New Translation II - Amanti - (Lovers) [Mux By MPT]
Encoded date : UTC 2016-12-21 08:39:04
Writing application : mkvmerge v9.6.0 ('Slave To Your Mind') 64bit
Writing library : libebml v1.3.4 + libmatroska v1.4.5
Attachments : ACaslon-Regular.otf / AdobeHeitiStd-Regular.otf / AdobeHeitiStd-Regular_0.otf / AdobeKaitiStd-Regular.otf / AdobeKaitiStd-Regular_0.otf / aparaj.ttf / arial.ttf / fansubBlock.ttf / tahoma.ttf / verdana.ttf / verdanai.ttf

Video
ID : 1
Format : AVC
Format/Info : Advanced Video Codec
Format profile : High [email protected]
Format settings, CABAC : Yes
Format settings, ReFrames : 16 frames
Codec ID : V_MPEG4/ISO/AVC
Duration : 1 h 37 min
Bit rate : 6 942 kb/s
Width : 1 920 pixels
Height : 1 080 pixels
Display aspect ratio : 16:9
Frame rate mode : Constant
Frame rate : 23.976 (24000/1001) FPS
Color space : YUV
Chroma subsampling : 4:2:0
Bit depth : 10 bits
Scan type : Progressive
Bits/(Pixel*Frame) : 0.140
Stream size : 4.73 GiB (80%)
Title : Mobile Suit Z Gundam - A New Translation II - Amanti - (Lovers)
Writing library : x264 core 125 r2200 999b753
Encoding settings : cabac=1 / ref=16 / deblock=1:1:1 / analyse=0x3:0x133 / me=esa / subme=9 / psy=1 / psy_rd=0.40:0.00 / mixed_ref=1 / me_range=16 / chroma_me=1 / trellis=2 / 8x8dct=1 / cqm=0 / deadzone=21,11 / fast_pskip=0 / chroma_qp_offset=-2 / threads=6 / lookahead_threads=1 / sliced_threads=0 / nr=0 / decimate=1 / interlaced=0 / bluray_compat=0 / constrained_intra=0 / bframes=5 / b_pyramid=2 / b_adapt=2 / b_bias=0 / direct=3 / weightb=1 / open_gop=0 / weightp=2 / keyint=230 / keyint_min=23 / scenecut=40 / intra_refresh=0 / rc_lookahead=60 / rc=crf / mbtree=1 / crf=18.0 / qcomp=0.60 / qpmin=0 / qpmax=81 / qpstep=4 / ip_ratio=1.40 / aq=1:0.60
Language : Japanese
Default : Yes
Forced : No

Audio #1
ID : 2
Format : AAC
Format/Info : Advanced Audio Codec
Format profile : LC
Codec ID : A_AAC
Duration : 1 h 37 min
Bit rate : 196 kb/s
Channel(s) : 2 channels
Channel positions : Front: L R
Sampling rate : 48.0 kHz
Frame rate : 46.875 FPS (1024 spf)
Compression mode : Lossy
Stream size : 137 MiB (2%)
Title : Italiano
Language : Italian
Default : Yes
Forced : No

Audio #2
ID : 3
Format : FLAC
Format/Info : Free Lossless Audio Codec
Codec ID : A_FLAC
Duration : 1 h 37 min
Bit rate mode : Variable
Bit rate : 1 460 kb/s
Channel(s) : 6 channels
Channel positions : Front: L C R, Side: L R, LFE
Sampling rate : 48.0 kHz
Frame rate : 11.719 FPS (4096 spf)
Bit depth : 16 bits
Stream size : 1 021 MiB (17%)
Title : Giapponese
Writing library : libFLAC 1.2.1 (UTC 2007-09-17)
Language : Japanese
Default : No
Forced : No

Text
ID : 4
Format : ASS
Codec ID : S_TEXT/ASS
Codec ID/Info : Advanced Sub Station Alpha
Duration : 1 h 36 min
Bit rate : 117 b/s
Count of elements : 1509
Compression mode : Lossless
Stream size : 83.6 KiB (0%)
Title : Inglese
Language : English
Default : No
Forced : No

Menu
00:00:00.000 : :Beltorchika Visits
00:05:46.972 : :Shuttle Launch
00:12:02.055 : :Four Murasame
00:28:43.221 : :Parting of the Blue Sky
00:37:40.800 : :Zeta's Pulse
00:44:49.520 : :Quickening to the Chaos
00:54:29.808 : :Trust and Betrayal
01:03:46.114 : :Breif Rest
01:07:44.560 : :Sarah Sneaks In
01:22:47.504 : :A Sign of Scirocco
01:28:40.815 : :The Ghost of Zeon
01:33:02.702 : :Ending [Gackt - Mind Forest]

Related torrents

Share