Hercules in the Underworld torrent download locations

Sponsored
torrent.cd Hercules in the Underworld
other - unsorted
monova Hercules in the Underworld
Movies
1337x Hercules in the Underworld (1994)
Movies > Mp4
torlock Hercules in the Underworld
Movies
torrentfunk Hercules in the Underworld
Movies
TheTorrent.org Hercules in the Underworld
Torrents storage

Torrent contents

Size: 697.66 MB

Hash: D6EDDB550A61735D336A6DEA8636809D2C2CCD1E

Torrent description(s)

  • torrentfunk
Hercules in the Underworld
Name: Hercules in the Underworld
Year: 1994
Duration: 90 mins
Votes: 597
Country: USA, New Zealand
Genres: Fantasy, Action, Adventure
Director: Bill L. Norton
He wrote: Christian Williams Andrew Dettmann Daniel Truly 
Manufacturer: David Eick Eric Gruendemann Bernadette Joyce Sam Raimi Robert G. Tapert Christian Williams 
Music: Joseph LoDuca
Hercules is finally a happy family man with his wife Deianeira, two young sons Aeson and Clonus, daughter Ilea and in-living centaur Nessus.
Anthony Quinn Zeus 
Tawny Kitaen Deianeira 
Marley Shelton Iole (as Marlee Shelton) 
Cliff Curtis Nessus 
Jorge Gonzáles Eryz the Boxer (as Jorge Gonzales) 
Timothy Balme Lycastus 
Michael Hurst Charon the Boatman 
Michael Mizrahi Metion 
Grant Bridger
Complete name                    : Hercules in the Underworld.mp4
Format                           : MPEG-4
Codec ID                         : mp42
File size                        : 698 MiB
Duration                         : 1h 30mn
Overall bit rate                 : 1 074 Kbps
Video
ID                               : 1
Format                           : AVC
Format/Info                      : Advanced Video Codec
Codec ID                         : avc1
Duration                         : 1h 30mn
Bit rate mode                    : Variable
Bit rate                         : 960 Kbps
Maximum bit rate                 : 4 114 Kbps
Width                            : 624 pixels
Height                           : 424 pixels
Display aspect ratio             : 3:2
Original display aspect ratio    : 4:3
Frame rate mode                  : Constant
Frame rate                       : 29.970 fps
Standard                         : NTSC
Chroma subsampling               : 4:2:0
Bit depth                        : 8 bits
Scan type                        : Progressive
Bits/(Pixel*Frame)               : 0.121
Stream size                      : 623 MiB (89%)
Language                         : English
Audio
ID                               : 2
Format                           : AAC
Format/Info                      : Advanced Audio Codec
Format profile                   : LC
Duration                         : 1h 30mn
Bit rate mode                    : Variable
Bit rate                         : 110 Kbps
Maximum bit rate                 : 125 Kbps
Channel(s)                       : 2 channels
Channel positions                : Front: L R
Sampling rate                    : 48.0 KHz
Compression mode                 : Lossy
Stream size                      : 71.3 MiB (10%)
Title                            : English
Language                         : English
Menu
00:00:00.000                     : Chapter 1
00:17:47.000                     : Chapter 2
00:25:08.200                     : Chapter 3
00:35:58.666                     : Chapter 4
00:55:49.800                     : Chapter 5
01:30:41.033                     : Chapter 6
Screen shots 
Keep Seeding After download thanks 

Related torrents

Title
Size
Seeds
Peers
Ghost.in.the.Shell.2.017.HDCAM.x264-.DiRG in 'Video - Movies'
1.68 GB
-
-
Panorama.2017.04.11.The.Spy.in.the.IRA.720p.HEVC.x265-MeGusta in 'Video - TV shows'
311.73 MB
-
-
A.Year.in.the.Wild.S02E04.1080p.HDTV.x264-QPEL in 'Video - HDTV shows'
2.23 GB
-
-
Penthouse.16.08.20.Lily.LaBeau.in.The.Old.Fashioned.Way.XXX.1... in 'Porn - HD Movies'
1.45 GB
-
-
Penthouse.16.08.19.Ana.Foxxx.in.The.Ballerina.And.Her.Beau.XX... in 'Porn - HD Movies'
1.22 GB
-
-
A.Year.in.the.Wild.S02E04.480p.x264-mSD in 'Video - TV shows'
380.16 MB
-
-
Panorama.2017.04.11.The.Spy.in.the.IRA.480p.x264-mSD in 'Video - TV shows'
210.68 MB
-
-
Penthouse.16.08.13.Angela.Summers.and.Destiny.Dixon.in.The.Fe... in 'Porn - HD Movies'
908.86 MB
-
-
LarasPlayground.17.04.14.Carla.Crouz.Fas.Fingers.In.The.W... in 'Porn - HD Movies'
2 GB
-
-
ScrewBox.16.12.19.Riley.Reid.Tears.In.The.Sun.XXX.1080p.MP4-K... in 'Porn - HD Movies'
853.92 MB
-
-
A.Year.in.the.Wild.S02E04.1080p.HEVC.x265-MeGusta in 'Video - TV shows'
1.03 GB
-
-

Share