Far Cry [2008] 1264x528 HD.Mp4.X264.AAC 5.1 ch.3Li torrent download locations

Sponsored
bittorrent.am Far Cry [2008] 1264x528 HD.Mp4.X264.AAC 5.1 ch.3Li
english-translated anime
monova Far Cry [2008] 1264x528 HD.Mp4.X264.AAC 5.1 ch.3Li
Movies
torrentdownloads
TheTorrent.org Far Cry [2008] 1264x528 HD.Mp4.X264.AAC 5.1 ch.3Li
Torrents storage

Torrent contents

Size: 1.42 GB

Hash: E40633A0DC64E5CB159016C89D16CA642A9AC45D

Torrent description(s)

  • kickasstorrents

Click to enlarge.(Original size)
image


Click to enlarge.(Original size)
image


Click to enlarge.(Original size)
image


Click to enlarge.(Original size)
image


Click to enlarge.(Original size)
image


Click to enlarge.(Original size)
image


Click to enlarge.(Original size)
image








General

Complete name                    : Far Cry.mp4

Format                           : MPEG-4

Format profile                   : Base Media

Codec ID                         : isom

File size                        : 1.42 GiB

Duration                         : 1h 34mn

Overall bit rate                 : 2 147 Kbps



Video

ID                               : 1

Format                           : AVC

Format/Info                      : Advanced Video Codec

Format profile                   : [email protected]

Format settings, CABAC           : Yes

Format settings, ReFrames        : 3 frames

Codec ID                         : avc1

Codec ID/Info                    : Advanced Video Coding

Duration                         : 1h 34mn

Bit rate mode                    : Variable

Bit rate                         : 1 953 Kbps

Nominal bit rate                 : 1 983 Kbps

Maximum bit rate                 : 8 001 Kbps

Width                            : 1 264 pixels

Height                           : 528 pixels

Display aspect ratio             : 2.35:1

Frame rate mode                  : Constant

Frame rate                       : 23.976 fps

Resolution                       : 24 bits

Colorimetry                      : 4:2:0

Scan type                        : Progressive

Bits/(Pixel*Frame)               : 0.122

Stream size                      : 1.29 GiB (91%)

Title                            : Far Cry By ELi

Writing library                  : x264 core 68 r1183M f21daff



Audio

ID                               : 2

Format                           : AAC

Format/Info                      : Advanced Audio Codec

Format version                   : Version 4

Format profile                   : LC

Format settings, SBR             : No

Codec ID                         : 40

Duration                         : 1h 34mn

Bit rate mode                    : Variable

Bit rate                         : 192 Kbps

Maximum bit rate                 : 308 Kbps

Channel(s)                       : 6 channels

Channel positions                : Front: L C R, Rear: L R, LFE

Sampling rate                    : 48.0 KHz

Resolution                       : 16 bits

Stream size                      : 129 MiB (9%)

Title                            : Far Cry

Related torrents

Share