Apes Revolution Il Pianeta Della Scimmie 2014 iTALiAN MD TS (TeamPremiumCracking) torrent download locations

Sponsored
bittorrent.am Apes Revolution Il Pianeta Della Scimmie 2014 iTALiAN MD TS (TeamPremiumCracking)
movies - unsorted
torrent.cd Apes Revolution Il Pianeta Della Scimmie 2014 iTALiAN MD TS (TeamPremiumCracking)
movies - other
torrentfunk Apes Revolution Il Pianeta Della Scimmie 2014 iTALiAN MD TS (TeamPremiumCracking)
Movies
TheTorrent.org Apes Revolution Il Pianeta Della Scimmie 2014 iTALiAN MD TS (TeamPremiumCracking)
Torrents storage

Torrent contents

Size: 1.35 GB

Hash: 9E52FAB77DA78C01D18CE9C8A87427312679B816

Torrent description(s)

  • isohunt.to
Tutti i miei film in streaming li trovi qui
http://debridpremium.altervista.org/Film/







General
Unique ID : 187116335308839204507327230802980015551 (0x8CC54B9A74335583A9C48CFBECBC8DBF)
Complete name : C:\xampp\htdocs\TeamPremiumCracking\FILM\Apes.Revolution.Il.Pianeta.Della.Scimmie.2014.iTALiAN.MD.TS.(TeamPremiumCracking)\Apes.Revolution.Il.Pianeta.Della.Scimmie.2014.iTALiAN.MD.TS.(TeamPremiumCracking).mkv
Format : Matroska
Format version : Version 4 / Version 2
File size : 1.35 GiB
Duration : 2h 1mn
Overall bit rate : 1 597 Kbps
Movie name : http://teampremiumcracking.altervista.org/
Encoded date : UTC 2014-08-02 21:59:55
Writing application : mkvmerge v6.9.1 ('Blue Panther') 64bit built on Apr 18 2014 18:23:38
Writing library : libebml v1.3.0 + libmatroska v1.4.1

Video
ID : 1
Format : MPEG-4 Visual
Format profile : Advanced [email protected]
Format settings, BVOP : Yes
Format settings, QPel : No
Format settings, GMC : No warppoints
Format settings, Matrix : Default (H.263)
Codec ID : V_MS/VFW/FOURCC / XVID
Codec ID/Hint : XviD
Duration : 2h 1mn
Bit rate : 1 437 Kbps
Width : 720 pixels
Height : 304 pixels
Display aspect ratio : 2.35:1
Frame rate mode : Constant
Frame rate : 23.976 fps
Color space : YUV
Chroma subsampling : 4:2:0
Bit depth : 8 bits
Scan type : Progressive
Compression mode : Lossy
Bits/(Pixel*Frame) : 0.274
Stream size : 1.22 GiB (90%)
Writing library : XviD 1.2.1 (UTC 2008-12-04)
Default : Yes
Forced : No

Audio
ID : 2
Format : MPEG Audio
Format version : Version 1
Format profile : Layer 3
Mode : Joint stereo
Mode extension : MS Stereo
Codec ID : A_MPEG/L3
Codec ID/Hint : MP3
Duration : 2h 1mn
Bit rate mode : Constant
Bit rate : 128 Kbps
Channel(s) : 2 channels
Sampling rate : 48.0 KHz
Compression mode : Lossy
Stream size : 111 MiB (8%)
Language : Italian
Default : Yes
Forced : No

Related torrents

Share